Tittenalarm 8 (2002)

Ответить на тему
Статистика раздачи
Размер:  700 MB   |    Зарегистрирован:  1 месяц 12 дней   |    Скачан:  25 раз
   
 
Автор Сообщение

Порно торрент ®

Стаж: 3 года 10 месяцев

Сообщений: 62608

Пост 09-Янв-2017 14:18

[Цитировать]

Tittenalarm 8 (2002)[DVDRIP][.AVI]
Screen:





COVER:

Format : AVI
Format/Info : Audio Video Interleave
File size : 700 MiB
Duration : 1h 27mn
Overall bit rate mode : Variable
Overall bit rate : 1 121 Kbps
Video
ID : 0
Format : MPEG-4 Visual
Format profile : Simple@L3
Format settings, BVOP : 1
Format settings, QPel : No
Format settings, GMC : No warppoints
Format settings, Matrix : Default (MPEG)
Codec ID : XVID
Codec ID/Hint : XviD
Duration : 1h 27mn
Bit rate : 983 Kbps
Width : 480 pixels
Height : 368 pixels
Display aspect ratio : 4:3
Frame rate : 25.000 fps
Color space : YUV
Chroma subsampling : 4:2:0
Bit depth : 8 bits
Scan type : Progressive
Compression mode : Lossy
Bits/(Pixel*Frame) : 0.223
Stream size : 613 MiB (88%)
Audio
ID : 1
Format : MPEG Audio
Format version : Version 1
Format profile : Layer 3
Mode : Joint stereo
Mode extension : MS Stereo
Codec ID : 55
Codec ID/Hint : MP3
Duration : 1h 27mn
Bit rate mode : Variable
Bit rate : 128 Kbps
Channel(s) : 2 channels
Sampling rate : 48.0 KHz
Compression mode : Lossy
Stream size : 78.0 MiB (11%)
Alignment : Aligned on interleaves
Interleave, duration : 24 ms (0.60 video frame)
Interleave, preload duration : 429 ms
Writing library : LAME3.95
File Size: 699 MB | Resolution: 480x368 | Duration: 01:27:15 | Format: avi
(m.torrentops.ru).t60755.torrent 
Торрент: Зарегистрирован   [ 2017-01-09 14:18 ]

Скачать

8 KB

Статус: проверено
Скачан: 25 раз
Размер: 700 MB
 

_________________
[Профиль] [ЛС]
Показать сообщения:    
Ответить на тему

Текущее время: Сегодня 05:23

Часовой пояс: GMT + 1



Вы не можете начинать темы
Вы не можете отвечать на сообщения
Вы не можете редактировать свои сообщения
Вы не можете удалять свои сообщения
Вы не можете голосовать в опросах
Вы не можете прикреплять файлы к сообщениям
Вы можете скачивать файлы