Tittenalarm 44 (2012)

Ответить на тему
Статистика раздачи
Размер:  699 MB   |    Зарегистрирован:  12 дней   |    Скачан:  18 раз
   
 
Автор Сообщение

porno ®

Стаж: 3 года 9 месяцев

Сообщений: 61133

Пост 08-Янв-2017 13:43

[Цитировать]

Tittenalarm 44 (2012)[DVDRIP][.AVI]
Screen:





COVER:

Format : AVI
Format/Info : Audio Video Interleave
File size : 699 MiB
Duration : 1h 36mn
Overall bit rate mode : Variable
Overall bit rate : 1 015 Kbps
Video
Format : MPEG-4 Visual
Format profile : Advanced Simple@L5
Format settings, BVOP : 2
Format settings, QPel : No
Format settings, GMC : No warppoints
Format settings, Matrix : Default (H.263)
Codec ID : XVID
Codec ID/Hint : XviD
Duration : 1h 36mn
Bit rate : 887 Kbps
Width : 608 pixels
Height : 336 pixels
Display aspect ratio : 16:9
Frame rate : 25.000 fps
Color space : YUV
Chroma subsampling : 4:2:0
Bit depth : 8 bits
Scan type : Progressive
Compression mode : Lossy
Bits/(Pixel*Frame) : 0.174
Stream size : 610 MiB (87%)
Audio
ID : 1
Format : MPEG Audio
Format version : Version 1
Format profile : Layer 3
Mode : Joint stereo
Mode extension : MS Stereo
Codec ID : 55
Codec ID/Hint : MP3
Duration : 1h 36mn
Bit rate mode : Variable
Bit rate : 116 Kbps
Nominal bit rate : 128 Kbps
Channel(s) : 2 channels
Sampling rate : 48.0 KHz
Compression mode : Lossy
Stream size : 79.7 MiB (11%)
Alignment : Aligned on interleaves
Interleave, duration : 24 ms (0.60 video frame)
Interleave, preload duration : 164 ms
File Size: 1,05 GB | Resolution: 852x480 | Duration: 01:48:56 | Format: mp4
(m.torrentops.ru).t60714.torrent 
Торрент: Зарегистрирован   [ 2017-01-08 13:43 ]

Скачать

8 KB

Статус: проверено
Скачан: 18 раз
Размер: 699 MB
 

_________________
[Профиль] [ЛС]
Показать сообщения:    
Ответить на тему

Текущее время: Сегодня 19:03

Часовой пояс: GMT + 1



Вы не можете начинать темы
Вы не можете отвечать на сообщения
Вы не можете редактировать свои сообщения
Вы не можете удалять свои сообщения
Вы не можете голосовать в опросах
Вы не можете прикреплять файлы к сообщениям
Вы можете скачивать файлы