Молоденькие | Teen Sex

Модераторы

Страницы :   Пред.  1, 2, 3, 4 ... 195, 196, 197  След.
Создать раздачу
 
Темы Торрент Отв. Посл. сообщение
Информация о видео
Год выпуска: 2017
Название: Taste of love
Жанр: All Sex, Oral
В ролях: Jane F (aka Nancy A)
Выпущено: Joymii
Продолжительность: 00:20:10
Язык: английский.
Файл
Качество: SiteRip
Формат: MPEG
Видео: MPEG4 Video (H264) 960x540 25fps 1535kbps
Аудио: AAC 44100Hz stereo 127kbps
Скриншоты:
0 | 0

0 | 54

30

2017-01-09 10:13

porno Последнее

Имя актрисы: Winter Kingston
Название ролика: Pitched And Swallowed
Подсайт и сайт: StreetBlowJobs.com / RealityKings.com
Год производства: 2017 г.
Жанр: Brunette, Outside, Blowjob, Doggystyle, Handjob, Tattooed, Shaved, White, Teen (18-19), Facial, General, 1 on 1, Straight
Продолжительность: 00:27:32
Формат видео: MP4
Видео: MPEG4 Video (H264) 768x432 23.976fps 1500kbps
Аудио: AAC 32000Hz mono 32kbps
0 | 0

0 | 55

6

2017-01-08 13:43

porno Последнее

Имя актрисы: Elizabeth Jolie
Название ролика: Trouble Maker
Подсайт и сайт: Nubiles-Porn.com / NubilesNetwork.com
Год производства: 2017 г.
Жанр: Small Boobs, Shaved Pussy, Blonde, Long hair, Bras, Panties, Hardcore, Petite, Girl-Boy, Blowjob, Deep Throat, Girls Finishing the Job, Bad Teens Punished
Продолжительность: 00:16:44
Формат видео: MP4
Видео: MPEG4 Video (H264) 960x540 29.97fps 2110kbps
Аудио: AAC 44100Hz stereo 106kbps
0 | 0

0 | 56

30

2017-01-08 13:43

porno Последнее

Tittenalarm 44 (2012)[DVDRIP][.AVI]
Screen:





COVER:

Format : AVI
Format/Info : Audio Video Interleave
File size : 699 MiB
Duration : 1h 36mn
Overall bit rate mode : Variable
Overall bit rate : 1 015 Kbps
Video
Format : MPEG-4 Visual
Format profile : Advanced Simple@L5
Format settings, BVOP : 2
Format settings, QPel : No
Format settings, GMC : No warppoints
Format settings, Matrix : Default (H.263)
Codec ID : XVID
Codec ID/Hint : XviD
Duration : 1h 36mn
Bit rate : 887 Kbps
Width : 608 pixels
Height : 336 pixels
Display aspect ratio : 16:9
Frame rate : 25.000 fps
Color space : YUV
Chroma subsampling : 4:2:0
Bit depth : 8 bits
Scan type : Progressive
Compression mode : Lossy
Bits/(Pixel*Frame) : 0.174
Stream size : 610 MiB (87%)
Audio
ID : 1
Format : MPEG Audio
Format version : Version 1
Format profile : Layer 3
Mode : Joint stereo
Mode extension : MS Stereo
Codec ID : 55
Codec ID/Hint : MP3
Duration : 1h 36mn
Bit rate mode : Variable
Bit rate : 116 Kbps
Nominal bit rate : 128 Kbps
Channel(s) : 2 channels
Sampling rate : 48.0 KHz
Compression mode : Lossy
Stream size : 79.7 MiB (11%)
Alignment : Aligned on interleaves
Interleave, duration : 24 ms (0.60 video frame)
Interleave, preload duration : 164 ms
File Size: 1,05 GB | Resolution: 852x480 | Duration: 01:48:56 | Format: mp4
0 | 0

0 | 40

17

2017-01-08 13:43

porno Последнее

Tittenalarm 34 (2010)[DVDRIP][.AVI]
Screen:





COVER:

Format : AVI
Format/Info : Audio Video Interleave
File size : 699 MiB
Duration : 55mn 5s
Overall bit rate mode : Variable
Overall bit rate : 1 774 Kbps
Video
ID : 0
Format : MPEG-4 Visual
Format profile : Advanced Simple@L5
Format settings, BVOP : 1
Format settings, QPel : No
Format settings, GMC : No warppoints
Format settings, Matrix : Default (H.263)
Codec ID : XVID
Codec ID/Hint : XviD
Duration : 55mn 5s
Bit rate : 1 642 Kbps
Width : 576 pixels
Height : 320 pixels
Display aspect ratio : 16:9
Frame rate : 25.000 fps
Color space : YUV
Chroma subsampling : 4:2:0
Bit depth : 8 bits
Scan type : Progressive
Compression mode : Lossy
Bits/(Pixel*Frame) : 0.356
Stream size : 647 MiB (93%)
Audio
ID : 1
Format : MPEG Audio
Format version : Version 1
Format profile : Layer 3
Mode : Dual mono
Codec ID : 55
Codec ID/Hint : MP3
Duration : 55mn 5s
Bit rate mode : Variable
Bit rate : 120 Kbps
Nominal bit rate : 128 Kbps
Channel(s) : 2 channels
Sampling rate : 48.0 KHz
Compression mode : Lossy
Stream size : 47.2 MiB (7%)
Alignment : Aligned on interleaves
Interleave, duration : 24 ms (0.60 video frame)
Interleave, preload duration : 544 ms
Writing library : LAME3.97
File Size: 1,36 GB | Resolution: 576x320 | Duration: 02:02:54 | Format: avi
0 | 0

0 | 60

19

2017-01-08 01:23

porno Последнее

Имя актрисы: Jill Kassidy
Название ролика: New Years Bang
Подсайт и сайт: X-Art.com
Год производства: 2017 г.
Жанр: Creampie, All Sex
Продолжительность: 00:18:49
Формат видео: MP4
Видео: MPEG4 Video (H264) 960x544 23.976fps 3500kbps
Аудио: AAC 48000Hz stereo 159kbps
0 | 0

0 | 54

28

2017-01-08 01:23

porno Последнее

Slim Teen Babe Loves Solo Masturbation [.MP4]
Screen:

or:

Screenshot:

Format : MPEG-4
Format profile : Base Media
Codec ID : isom
File size : 322 MiB
Duration : 8mn 35s
Video
ID : 1
Format : MPEG-4 Visual
Format profile : Simple@L3
Format settings, BVOP : No
Format settings, QPel : No
Format settings, GMC : No warppoints
Format settings, Matrix : Default (H.263)
Codec ID : 20
Duration : 8mn 35s
Bit rate : 5 117 Kbps
Width : 1 280 pixels
Height : 720 pixels
Display aspect ratio : 16:9
Frame rate mode : Constant
Frame rate : 30.000 fps
Color space : YUV
Chroma subsampling : 4:2:0
Bit depth : 8 bits
Scan type : Progressive
Compression mode : Lossy
Bits/(Pixel*Frame) : 0.185
Stream size : 314 MiB (97%)
Audio
ID : 2
Format : AAC
Format/Info : Advanced Audio Codec
Format profile : LC
Codec ID : 40
Duration : 8mn 35s
Bit rate mode : Variable
Bit rate : 128 Kbps
Channel(s) : 2 channels
Channel positions : Front: L R
Sampling rate : 44.1 KHz
Compression mode : Lossy
Stream size : 7.86 MiB (2%)
File Size: 322 MB | Resolution: 1280x720 | Duration: 08:35 | Format: mp4
0 | 0

0 | 40

1

2017-01-08 01:23

porno Последнее

Имя актрисы: Chloe Couture
Название ролика: Cookies and Cream
Подсайт и сайт: Colette.com
Год производства: 2017 г.
Жанр: Deep Throat, Swallow, IR, All Sex
Продолжительность: 00:16:12
Формат видео: MP4
Видео: MPEG4 Video (H264) 960x544 23.976fps 3500kbps
Аудио: AAC 48000Hz stereo 160kbps
0 | 0

0 | 46

15

2017-01-08 01:23

porno Последнее

Информация о видео
Год выпуска: 2017
Название: Stranger Danger
Жанр: All Sex, Oral, Teen
В ролях: Karlie Brooks
Выпущено: EroticaX
Продолжительность: 00:38:54
Язык: английский.
Файл
Качество: SiteRip
Формат: MPEG
Видео: MPEG4 Video (H264) 720x400 (16:9) 29.97fps 1193kbps
Аудио: AAC 44100Hz stereo 128kbps
Скриншоты:
0 | 0

0 | 60

31

2017-01-08 01:23

porno Последнее

Teenies auf der Couch (2001)[DVDRIP][.AVI]
Screen:





COVER:

Format : AVI
Format/Info : Audio Video Interleave
File size : 702 MiB
Duration : 1h 27mn
Overall bit rate : 1 121 Kbps
Video
ID : 0
Format : MPEG-4 Visual
Codec ID : DIV3
Codec ID/Hint : DivX 3 Low
Duration : 1h 27mn
Bit rate : 981 Kbps
Width : 640 pixels
Height : 480 pixels
Display aspect ratio : 4:3
Frame rate : 25.000 fps
Color space : YUV
Chroma subsampling : 4:2:0
Bit depth : 8 bits
Compression mode : Lossy
Bits/(Pixel*Frame) : 0.128
Stream size : 614 MiB (87%)
Audio
ID : 1
Format : MPEG Audio
Format version : Version 1
Format profile : Layer 3
Mode : Joint stereo
Mode extension : MS Stereo
Codec ID : 55
Codec ID/Hint : MP3
Duration : 1h 27mn
Bit rate mode : Constant
Bit rate : 128 Kbps
Channel(s) : 2 channels
Sampling rate : 44.1 KHz
Compression mode : Lossy
Delay relative to video : 9ms
Stream size : 79.9 MiB (11%)
Alignment : Aligned on interleaves
Interleave, duration : 26 ms (0.65 video frame)
Interleave, preload duration : 522 ms
Writing library : LAME3.91
File Size: 701 MB | Resolution: 640x480 | Duration: 01:27:28 | Format: avi
0 | 0

0 | 57

16

2017-01-07 17:13

porno Последнее

Blackmailed Teens / Шантаж Подростков (2016) WEB-DL
Год производства: 2016 г.
Страна: USA
Жанр: Gonzo, 18+Teens, Anal
Продолжительность: 02:19:29
Язык: Английский
Режиссер: Kevin Moore
Студия: Evil Angel
В ролях: Gia Paige, Jojo Kiss, Tiffany Watson, Jaye Summers.
Качество видео: WEB-DL
Формат видео: MP4
Видео: MPEG4 Video (H264) 960x544 (16:9) 29.97fps 1800 Kbps
Аудио: AAC Stereo 44.1 KHz, 192 Kbps

0 | 0

0 | 48

16

2017-01-07 17:13

porno Последнее

Les Sondeuses porno avi


Resolution: 512x416 | Duration: 01:15:49 | Format: avi
0 | 0

0 | 50

18

2017-01-07 17:13

porno Последнее

Название ролика: 19 Years Old
Номер на сайте: E400
Подсайт и сайт: GirlsDoPorn.com
Год производства: 2016 г.
Жанр: Casting Amateur Sex
Продолжительность: 00:48:16
Формат: MP4
Видео: MPEG4 (H264) 480x270 29.97fps 800kbps
Аудио: AAC 22050Hz stereo 64kbps
0 | 0

0 | 74

25

2017-01-07 13:03

porno Последнее

Имя актрисы: Kristen Scott
Название ролика: Hotter In The Morning
Подсайт и сайт: NubileFilms.com / NubilesNetwork.com
Год производства: 2017 г.
Жанр: Small Boobs, Landing Strip Pussy, Short Girls, Blonde, Long hair, Hardcore, Petite, Tan Lines, Girl-Boy, Blowjob, Girls Finishing the Job, Pussy Licking
Продолжительность: 00:16:58
Формат видео: MP4
Видео: MPEG4 Video (H264) 960x540 23.976fps 1583kbps
Аудио: AAC 44100Hz stereo 107kbps
0 | 0

0 | 45

18

2017-01-07 13:03

porno Последнее

Beauty and the Senior 8 / Красотка и Старпер 8 (2017) WEB-DL

Год производства: 2017 г.
Страна: USA
Жанр: Teens +18, Older Men, Grandpa, Old & Young Females
Продолжительность: 01:36:08
Язык: Английский
Студия: My Sexy Kittens
В ролях: Amateurs
Качество видео: WEB-DL
Формат видео: MP4
Видео: MPEG4 Video (H264) 852x480 29.97fps 1988kbps
Аудио: AAC 48000Hz stereo 164kbps

0 | 0

0 | 70

18

2017-01-07 00:43

porno Последнее

Имя актрисы: Riley Mae
Подсайт и сайт: AmateurAllure.com
Год производства: 2017 г.
Жанр: Blowjob, Handjob, Swallow, POV, All Sex
Продолжительность: 00:26:03
Качество видео: SiteRip
Формат видео: WMV
Видео: WMVA 800x450 29.97fps 2787kbps
Аудио: WMA 2 44100Hz stereo 64kbps
0 | 0

0 | 46

19

2017-01-06 12:23

porno Последнее

Имя актрисы: Karlie Brooks
Название ролика: Stranger Danger
Подсайт и сайт: EroticaX.com
Год производства: 2017 г.
Жанр: Cumshot, Fingering, Brunette, Petite, Blowjob, Small Tits, Pussy Licking, Tattooed
Продолжительность: 00:38:54
Качество видео: SiteRip
Формат видео: MP4
Видео: MPEG4 Video (H264) 960x544 (16:9) 29.97fps 1800kbps
Аудио: AAC 44100Hz stereo 192kbps
0 | 0

0 | 36

13

2017-01-06 12:23

porno Последнее

Информация о видео
Год выпуска: 2017
Название: Young and Kinky Tenant
Жанр: All Sex, Oral, Teen
В ролях: Ashlee Mae
Выпущено:Vixen
Продолжительность: 00:41:16
Язык: английский.
Файл
Качество: SiteRip
Формат: MPEG
Видео: MPEG4 Video (H264) 854x480 (137:77) 23.976fps 1024kbps
Аудио: AAC 48000Hz stereo 63kbps
Скриншоты:
0 | 0

0 | 83

58

2017-01-06 04:13

porno Последнее

Имя актрисы: Katy Rose
Название ролика: Creampie from pulsating cunt
Подсайт и сайт: Creampie-Angels.com / TeenMegaWorld.net
Год производства: 2017 г.
Жанр: Creampie, Deep Throat, Squirting, All Sex
Продолжительность: 00:27:16
Качество видео: SiteRip
Формат видео: MP4
Видео: MPEG4 Video (H264) 720x404 25fps 1997kbps
Аудио: AAC 48000Hz stereo 317kbps
0 | 0

0 | 58

25

2017-01-06 00:08

porno Последнее

Оригинальное название порно видео: Elsa Jean (сцена из"Barely Legal 152")
Качество видео: DVDRip
Продолжительность ролика: 00:34:30
Жанры порно ролика: All Sex, Oral, Teen
В ролике снимались: Elsa Jean
Коротко о порно видео: Пары банальных комплиментов от матёрого факерюги хватило очаровательной девчушке, чтобы воспылать к нему неземной страстью и пойти поскакать на большой шняге галантного незнакомца...
Video: MPEG4 Video (H264) 960x540 29.97fps 1493kbps
Audio: AAC 44100Hz stereo 100kbps
0 | 0

0 | 40

18

2017-01-06 00:08

porno Последнее

 
Создать раздачу

Текущее время: Сегодня 18:00

Часовой пояс: GMT + 1

Вы не можете начинать темы
Вы не можете отвечать на сообщения
Вы не можете редактировать свои сообщения
Вы не можете удалять свои сообщения
Вы не можете голосовать в опросах
Вы не можете прикреплять файлы к сообщениям
Вы можете скачивать файлы
Новые сообщения Объявление
Нет новых сообщений Прилепленная
Тема закрыта Скачиваемая